UnderPaste

Multiples Textos Compartidos

The Hunger Games: Mockingjay – Part 2 (2015) 1080p BD50

DISC INFO:

Disc Title: MOCKINGJAY_2
Disc Size: 49,951,879,849 bytes
Protection: AACS
BD-Java: Yes
BDInfo: 0.7.1

PLAYLIST REPORT:

Name: 00301.MPLS
Length: 2:21:45.747 (h:m:s.ms)
Size: 0 bytes
Total Bitrate: 0.00 Mbps

VIDEO:

Codec Bitrate Description
----- ------- -----------
MPEG-4 AVC Video 0 kbps 1080p / 23.976 fps / 16:9 / High Profile 4.1

AUDIO:

Codec Language Bitrate Description
----- -------- ------- -----------
Dolby Digital Audio English 192 kbps 2.0 / 48 kHz / 192 kbps / DN -4dB

FILES:

Name Time In Length Size Total Bitrate
---- ------- ------ ---- -------------
03766.M2TS 0:00:00.000 0:13:42.696 0 0
03767.M2TS 0:13:42.696 0:10:24.415 0 0
03768.M2TS 0:24:07.112 0:17:17.911 0 0
03769.M2TS 0:41:25.024 0:14:14.728 0 0
03770.M2TS 0:55:39.753 0:13:41.529 0 0
03771.M2TS 1:09:21.282 0:18:53.006 0 0
03772.M2TS 1:28:14.288 0:29:58.630 0 0
03773.M2TS 1:58:12.919 0:23:32.828 0 0

CHAPTERS:

Number Time In Length Avg Video Rate Max 1-Sec Rate Max 1-Sec Time Max 5-Sec Rate Max 5-Sec Time Max 10Sec Rate Max 10Sec Time Avg Frame Size Max Frame Size Max Frame Time
------ ------- ------ -------------- -------------- -------------- -------------- -------------- -------------- -------------- -------------- -------------- --------------
1 0:00:00.000 0:13:42.696 0 kbps 0 kbps 00:00:00.000 0 kbps 00:00:00.000 0 kbps 00:00:00.000 0 bytes 0 bytes 00:00:00.000
2 0:13:42.696 0:10:24.415 0 kbps 0 kbps 00:00:00.000 0 kbps 00:00:00.000 0 kbps 00:00:00.000 0 bytes 0 bytes 00:00:00.000
3 0:24:07.112 0:17:17.911 0 kbps 0 kbps 00:00:00.000 0 kbps 00:00:00.000 0 kbps 00:00:00.000 0 bytes 0 bytes 00:00:00.000
4 0:41:25.024 0:14:14.728 0 kbps 0 kbps 00:00:00.000 0 kbps 00:00:00.000 0 kbps 00:00:00.000 0 bytes 0 bytes 00:00:00.000
5 0:55:39.753 0:13:41.529 0 kbps 0 kbps 00:00:00.000 0 kbps 00:00:00.000 0 kbps 00:00:00.000 0 bytes 0 bytes 00:00:00.000
6 1:09:21.282 0:18:53.006 0 kbps 0 kbps 00:00:00.000 0 kbps 00:00:00.000 0 kbps 00:00:00.000 0 bytes 0 bytes 00:00:00.000
7 1:28:14.288 0:29:58.630 0 kbps 0 kbps 00:00:00.000 0 kbps 00:00:00.000 0 kbps 00:00:00.000 0 bytes 0 bytes 00:00:00.000
8 1:58:12.919 0:23:32.828 0 kbps 0 kbps 00:00:00.000 0 kbps 00:00:00.000 0 kbps 00:00:00.000 0 bytes 0 bytes 00:00:00.000

STREAM DIAGNOSTICS:

File PID Type Codec Language Seconds Bitrate Bytes Packets
---- --- ---- ----- -------- -------------- -------------- ------------- -----
03766.M2TS 4113 (0x1011) 0x1B AVC 0 0 0 0
03766.M2TS 4352 (0x1100) 0x81 AC3 eng (English) 0 0 0 0
03767.M2TS 4113 (0x1011) 0x1B AVC 0 0 0 0
03767.M2TS 4352 (0x1100) 0x81 AC3 eng (English) 0 0 0 0
03768.M2TS 4113 (0x1011) 0x1B AVC 0 0 0 0
03768.M2TS 4352 (0x1100) 0x81 AC3 eng (English) 0 0 0 0
03769.M2TS 4113 (0x1011) 0x1B AVC 0 0 0 0
03769.M2TS 4352 (0x1100) 0x81 AC3 eng (English) 0 0 0 0
03770.M2TS 4113 (0x1011) 0x1B AVC 0 0 0 0
03770.M2TS 4352 (0x1100) 0x81 AC3 eng (English) 0 0 0 0
03771.M2TS 4113 (0x1011) 0x1B AVC 0 0 0 0
03771.M2TS 4352 (0x1100) 0x81 AC3 eng (English) 0 0 0 0
03772.M2TS 4113 (0x1011) 0x1B AVC 0 0 0 0
03772.M2TS 4352 (0x1100) 0x81 AC3 eng (English) 0 0 0 0
03773.M2TS 4113 (0x1011) 0x1B AVC 0 0 0 0
03773.M2TS 4352 (0x1100) 0x81 AC3 eng (English) 0 0 0 0

[/code]
<---- END FORUMS PASTE ---->

QUICK SUMMARY:

Disc Title: MOCKINGJAY_2
Disc Size: 49,951,879,849 bytes
Protection: AACS
BD-Java: Yes
Playlist: 00301.MPLS
Size: 0 bytes
Length: 2:21:45.747
Total Bitrate: 0.00 Mbps
Video: MPEG-4 AVC Video / 0 kbps / 1080p / 23.976 fps / 16:9 / High Profile 4.1
Audio: English / Dolby Digital Audio / 2.0 / 48 kHz / 192 kbps / DN -4dB


Reportar Error Visitas: 204