UnderPaste

Multiples Textos Compartidos

The Hunger Games: Mockingjay – Part I (2014) 1080p BD50

DISC INFO:

Disc Title: MOCKINJAY_PT1
Disc Size: 48,740,038,177 bytes
Protection: AACS
BD-Java: Yes
BDInfo: 0.7.1

PLAYLIST REPORT:

Name: 00479.MPLS
Length: 2:14:19.718 (h:m:s.ms)
Size: 0 bytes
Total Bitrate: 0.00 Mbps

VIDEO:

Codec Bitrate Description
----- ------- -----------
MPEG-4 AVC Video 0 kbps 1080p / 23.976 fps / 16:9 / High Profile 4.1

AUDIO:

Codec Language Bitrate Description
----- -------- ------- -----------
Dolby Digital Audio English 192 kbps 2.0 / 48 kHz / 192 kbps / DN -4dB

FILES:

Name Time In Length Size Total Bitrate
---- ------- ------ ---- -------------
03157.M2TS 0:00:00.000 0:11:54.171 0 0
03158.M2TS 0:11:54.171 0:13:16.962 0 0
03159.M2TS 0:25:11.134 0:13:51.080 0 0
03160.M2TS 0:39:02.214 0:22:49.993 0 0
03161.M2TS 1:01:52.208 0:16:47.131 0 0
03162.M2TS 1:18:39.339 0:16:31.490 0 0
03163.M2TS 1:35:10.830 0:29:40.320 0 0
03164.M2TS 2:04:51.150 0:09:28.568 0 0

CHAPTERS:

Number Time In Length Avg Video Rate Max 1-Sec Rate Max 1-Sec Time Max 5-Sec Rate Max 5-Sec Time Max 10Sec Rate Max 10Sec Time Avg Frame Size Max Frame Size Max Frame Time
------ ------- ------ -------------- -------------- -------------- -------------- -------------- -------------- -------------- -------------- -------------- --------------
1 0:00:00.000 0:11:54.171 0 kbps 0 kbps 00:00:00.000 0 kbps 00:00:00.000 0 kbps 00:00:00.000 0 bytes 0 bytes 00:00:00.000
2 0:11:54.171 0:13:16.962 0 kbps 0 kbps 00:00:00.000 0 kbps 00:00:00.000 0 kbps 00:00:00.000 0 bytes 0 bytes 00:00:00.000
3 0:25:11.134 0:13:51.080 0 kbps 0 kbps 00:00:00.000 0 kbps 00:00:00.000 0 kbps 00:00:00.000 0 bytes 0 bytes 00:00:00.000
4 0:39:02.214 0:22:49.993 0 kbps 0 kbps 00:00:00.000 0 kbps 00:00:00.000 0 kbps 00:00:00.000 0 bytes 0 bytes 00:00:00.000
5 1:01:52.208 0:16:47.131 0 kbps 0 kbps 00:00:00.000 0 kbps 00:00:00.000 0 kbps 00:00:00.000 0 bytes 0 bytes 00:00:00.000
6 1:18:39.339 0:16:31.490 0 kbps 0 kbps 00:00:00.000 0 kbps 00:00:00.000 0 kbps 00:00:00.000 0 bytes 0 bytes 00:00:00.000
7 1:35:10.830 0:29:40.320 0 kbps 0 kbps 00:00:00.000 0 kbps 00:00:00.000 0 kbps 00:00:00.000 0 bytes 0 bytes 00:00:00.000
8 2:04:51.150 0:09:28.568 0 kbps 0 kbps 00:00:00.000 0 kbps 00:00:00.000 0 kbps 00:00:00.000 0 bytes 0 bytes 00:00:00.000

STREAM DIAGNOSTICS:

File PID Type Codec Language Seconds Bitrate Bytes Packets
---- --- ---- ----- -------- -------------- -------------- ------------- -----
03157.M2TS 4113 (0x1011) 0x1B AVC 0 0 0 0
03157.M2TS 4352 (0x1100) 0x81 AC3 eng (English) 0 0 0 0
03158.M2TS 4113 (0x1011) 0x1B AVC 0 0 0 0
03158.M2TS 4352 (0x1100) 0x81 AC3 eng (English) 0 0 0 0
03159.M2TS 4113 (0x1011) 0x1B AVC 0 0 0 0
03159.M2TS 4352 (0x1100) 0x81 AC3 eng (English) 0 0 0 0
03160.M2TS 4113 (0x1011) 0x1B AVC 0 0 0 0
03160.M2TS 4352 (0x1100) 0x81 AC3 eng (English) 0 0 0 0
03161.M2TS 4113 (0x1011) 0x1B AVC 0 0 0 0
03161.M2TS 4352 (0x1100) 0x81 AC3 eng (English) 0 0 0 0
03162.M2TS 4113 (0x1011) 0x1B AVC 0 0 0 0
03162.M2TS 4352 (0x1100) 0x81 AC3 eng (English) 0 0 0 0
03163.M2TS 4113 (0x1011) 0x1B AVC 0 0 0 0
03163.M2TS 4352 (0x1100) 0x81 AC3 eng (English) 0 0 0 0
03164.M2TS 4113 (0x1011) 0x1B AVC 0 0 0 0
03164.M2TS 4352 (0x1100) 0x81 AC3 eng (English) 0 0 0 0

[/code]
<---- END FORUMS PASTE ---->

QUICK SUMMARY:

Disc Title: MOCKINJAY_PT1
Disc Size: 48,740,038,177 bytes
Protection: AACS
BD-Java: Yes
Playlist: 00479.MPLS
Size: 0 bytes
Length: 2:14:19.718
Total Bitrate: 0.00 Mbps
Video: MPEG-4 AVC Video / 0 kbps / 1080p / 23.976 fps / 16:9 / High Profile 4.1
Audio: English / Dolby Digital Audio / 2.0 / 48 kHz / 192 kbps / DN -4dB


Reportar Error Visitas: 172