Under Paste

Multiples Textos Compartidos

The Terminator (1984) Remastered 1080p BD50

DISC INFO:

Disc Title: THE_TERMINATOR_BD
Disc Size: 36,109,489,325 bytes
Protection: AACS
BD-Java: Yes
BDInfo: 0.7.1

PLAYLIST REPORT:

Name: 00000.MPLS
Length: 1:47:18.598 (h:m:s.ms)
Size: 0 bytes
Total Bitrate: 0.00 Mbps

(*) Indicates included stream hidden by this playlist.

VIDEO:

Codec Bitrate Description
----- ------- -----------
MPEG-4 AVC Video 0 kbps 1080p / 23.976 fps / 16:9 / High Profile 4.1

AUDIO:

Codec Language Bitrate Description
----- -------- ------- -----------
DTS-HD Master Audio English 0 kbps 5.1 / 48 kHz / 24-bit (DTS Core: 5.1 / 48 kHz / 1509 kbps / 24-bit)
Dolby Digital Audio Spanish 448 kbps 5.1 / 48 kHz / 448 kbps
DTS Audio French 768 kbps 5.1 / 48 kHz / 768 kbps / 24-bit
Dolby Digital Audio Portuguese 224 kbps 2.0 / 48 kHz / 224 kbps
Dolby Digital Audio Thai 224 kbps 2.0 / 48 kHz / 224 kbps
* DTS Audio Japanese 768 kbps 5.1 / 48 kHz / 768 kbps / 24-bit

SUBTITLES:

Codec Language Bitrate Description
----- -------- ------- -----------
Presentation Graphics English 0.000 kbps
Presentation Graphics Spanish 0.000 kbps
Presentation Graphics French 0.000 kbps
Presentation Graphics Portuguese 0.000 kbps
Presentation Graphics Chinese 0.000 kbps
Presentation Graphics Chinese 0.000 kbps
Presentation Graphics Danish 0.000 kbps
Presentation Graphics Finnish 0.000 kbps
Presentation Graphics Icelandic 0.000 kbps
Presentation Graphics Indonesian 0.000 kbps
* Presentation Graphics Japanese 0.000 kbps
Presentation Graphics Korean 0.000 kbps
Presentation Graphics Norwegian 0.000 kbps
Presentation Graphics Swedish 0.000 kbps
Presentation Graphics Thai 0.000 kbps
Presentation Graphics Spanish 0.000 kbps
Presentation Graphics French 0.000 kbps
Presentation Graphics Japanese 0.000 kbps
Presentation Graphics Portuguese 0.000 kbps
Presentation Graphics Thai 0.000 kbps

FILES:

Name Time In Length Size Total Bitrate
---- ------- ------ ---- -------------
00003.M2TS 0:00:00.000 0:00:16.099 0 0
00000.M2TS 0:00:16.099 1:46:57.452 0 0
00002.M2TS 1:47:13.552 0:00:05.046 0 0

CHAPTERS:

Number Time In Length Avg Video Rate Max 1-Sec Rate Max 1-Sec Time Max 5-Sec Rate Max 5-Sec Time Max 10Sec Rate Max 10Sec Time Avg Frame Size Max Frame Size Max Frame Time
------ ------- ------ -------------- -------------- -------------- -------------- -------------- -------------- -------------- -------------- -------------- --------------
1 0:00:00.000 0:03:32.253 0 kbps 0 kbps 00:00:00.000 0 kbps 00:00:00.000 0 kbps 00:00:00.000 0 bytes 0 bytes 00:00:00.000
2 0:03:32.253 0:01:45.897 0 kbps 0 kbps 00:00:00.000 0 kbps 00:00:00.000 0 kbps 00:00:00.000 0 bytes 0 bytes 00:00:00.000
3 0:05:18.151 0:01:12.864 0 kbps 0 kbps 00:00:00.000 0 kbps 00:00:00.000 0 kbps 00:00:00.000 0 bytes 0 bytes 00:00:00.000
4 0:06:31.015 0:05:07.307 0 kbps 0 kbps 00:00:00.000 0 kbps 00:00:00.000 0 kbps 00:00:00.000 0 bytes 0 bytes 00:00:00.000
5 0:11:38.322 0:02:07.001 0 kbps 0 kbps 00:00:00.000 0 kbps 00:00:00.000 0 kbps 00:00:00.000 0 bytes 0 bytes 00:00:00.000
6 0:13:45.324 0:01:26.503 0 kbps 0 kbps 00:00:00.000 0 kbps 00:00:00.000 0 kbps 00:00:00.000 0 bytes 0 bytes 00:00:00.000
7 0:15:11.827 0:05:32.790 0 kbps 0 kbps 00:00:00.000 0 kbps 00:00:00.000 0 kbps 00:00:00.000 0 bytes 0 bytes 00:00:00.000
8 0:20:44.618 0:02:04.999 0 kbps 0 kbps 00:00:00.000 0 kbps 00:00:00.000 0 kbps 00:00:00.000 0 bytes 0 bytes 00:00:00.000
9 0:22:49.618 0:07:00.169 0 kbps 0 kbps 00:00:00.000 0 kbps 00:00:00.000 0 kbps 00:00:00.000 0 bytes 0 bytes 00:00:00.000
10 0:29:49.787 0:03:25.246 0 kbps 0 kbps 00:00:00.000 0 kbps 00:00:00.000 0 kbps 00:00:00.000 0 bytes 0 bytes 00:00:00.000
11 0:33:15.034 0:05:32.081 0 kbps 0 kbps 00:00:00.000 0 kbps 00:00:00.000 0 kbps 00:00:00.000 0 bytes 0 bytes 00:00:00.000
12 0:38:47.116 0:02:38.074 0 kbps 0 kbps 00:00:00.000 0 kbps 00:00:00.000 0 kbps 00:00:00.000 0 bytes 0 bytes 00:00:00.000
13 0:41:25.191 0:06:21.297 0 kbps 0 kbps 00:00:00.000 0 kbps 00:00:00.000 0 kbps 00:00:00.000 0 bytes 0 bytes 00:00:00.000
14 0:47:46.488 0:02:53.506 0 kbps 0 kbps 00:00:00.000 0 kbps 00:00:00.000 0 kbps 00:00:00.000 0 bytes 0 bytes 00:00:00.000
15 0:50:39.995 0:04:01.574 0 kbps 0 kbps 00:00:00.000 0 kbps 00:00:00.000 0 kbps 00:00:00.000 0 bytes 0 bytes 00:00:00.000
16 0:54:41.569 0:04:23.346 0 kbps 0 kbps 00:00:00.000 0 kbps 00:00:00.000 0 kbps 00:00:00.000 0 bytes 0 bytes 00:00:00.000
17 0:59:04.916 0:04:48.621 0 kbps 0 kbps 00:00:00.000 0 kbps 00:00:00.000 0 kbps 00:00:00.000 0 bytes 0 bytes 00:00:00.000
18 1:03:53.538 0:05:44.010 0 kbps 0 kbps 00:00:00.000 0 kbps 00:00:00.000 0 kbps 00:00:00.000 0 bytes 0 bytes 00:00:00.000
19 1:09:37.548 0:04:31.437 0 kbps 0 kbps 00:00:00.000 0 kbps 00:00:00.000 0 kbps 00:00:00.000 0 bytes 0 bytes 00:00:00.000
20 1:14:08.986 0:00:51.092 0 kbps 0 kbps 00:00:00.000 0 kbps 00:00:00.000 0 kbps 00:00:00.000 0 bytes 0 bytes 00:00:00.000
21 1:15:00.078 0:02:18.721 0 kbps 0 kbps 00:00:00.000 0 kbps 00:00:00.000 0 kbps 00:00:00.000 0 bytes 0 bytes 00:00:00.000
22 1:17:18.800 0:01:11.571 0 kbps 0 kbps 00:00:00.000 0 kbps 00:00:00.000 0 kbps 00:00:00.000 0 bytes 0 bytes 00:00:00.000
23 1:18:30.372 0:04:30.520 0 kbps 0 kbps 00:00:00.000 0 kbps 00:00:00.000 0 kbps 00:00:00.000 0 bytes 0 bytes 00:00:00.000
24 1:23:00.892 0:03:23.828 0 kbps 0 kbps 00:00:00.000 0 kbps 00:00:00.000 0 kbps 00:00:00.000 0 bytes 0 bytes 00:00:00.000
25 1:26:24.721 0:03:57.862 0 kbps 0 kbps 00:00:00.000 0 kbps 00:00:00.000 0 kbps 00:00:00.000 0 bytes 0 bytes 00:00:00.000
26 1:30:22.583 0:01:56.783 0 kbps 0 kbps 00:00:00.000 0 kbps 00:00:00.000 0 kbps 00:00:00.000 0 bytes 0 bytes 00:00:00.000
27 1:32:19.367 0:03:32.754 0 kbps 0 kbps 00:00:00.000 0 kbps 00:00:00.000 0 kbps 00:00:00.000 0 bytes 0 bytes 00:00:00.000
28 1:35:52.121 0:04:01.741 0 kbps 0 kbps 00:00:00.000 0 kbps 00:00:00.000 0 kbps 00:00:00.000 0 bytes 0 bytes 00:00:00.000
29 1:39:53.862 0:00:24.858 0 kbps 0 kbps 00:00:00.000 0 kbps 00:00:00.000 0 kbps 00:00:00.000 0 bytes 0 bytes 00:00:00.000
30 1:40:18.721 0:00:30.613 0 kbps 0 kbps 00:00:00.000 0 kbps 00:00:00.000 0 kbps 00:00:00.000 0 bytes 0 bytes 00:00:00.000
31 1:40:49.334 0:02:23.560 0 kbps 0 kbps 00:00:00.000 0 kbps 00:00:00.000 0 kbps 00:00:00.000 0 bytes 0 bytes 00:00:00.000
32 1:43:12.895 0:04:05.703 0 kbps 0 kbps 00:00:00.000 0 kbps 00:00:00.000 0 kbps 00:00:00.000 0 bytes 0 bytes 00:00:00.000

STREAM DIAGNOSTICS:

File PID Type Codec Language Seconds Bitrate Bytes Packets
---- --- ---- ----- -------- -------------- -------------- ------------- -----
00003.M2TS 4113 (0x1011) 0x1B AVC 0 0 0 0
00003.M2TS 4352 (0x1100) 0x86 DTS-HD MA eng (English) 0 0 0 0
00003.M2TS 4353 (0x1101) 0x81 AC3 spa (Spanish) 0 0 0 0
00003.M2TS 4354 (0x1102) 0x82 DTS fra (French) 0 0 0 0
00003.M2TS 4355 (0x1103) 0x81 AC3 por (Portuguese) 0 0 0 0
00003.M2TS 4356 (0x1104) 0x81 AC3 tha (Thai) 0 0 0 0
00003.M2TS 4357 (0x1105) 0x82 DTS jpn (Japanese) 0 0 0 0
00003.M2TS 4608 (0x1200) 0x90 PGS eng (English) 0 0 0 0
00003.M2TS 4609 (0x1201) 0x90 PGS spa (Spanish) 0 0 0 0
00003.M2TS 4610 (0x1202) 0x90 PGS fra (French) 0 0 0 0
00003.M2TS 4611 (0x1203) 0x90 PGS por (Portuguese) 0 0 0 0
00003.M2TS 4612 (0x1204) 0x90 PGS zho (Chinese) 0 0 0 0
00003.M2TS 4613 (0x1205) 0x90 PGS zho (Chinese) 0 0 0 0
00003.M2TS 4614 (0x1206) 0x90 PGS dan (Danish) 0 0 0 0
00003.M2TS 4615 (0x1207) 0x90 PGS fin (Finnish) 0 0 0 0
00003.M2TS 4616 (0x1208) 0x90 PGS isl (Icelandic) 0 0 0 0
00003.M2TS 4617 (0x1209) 0x90 PGS ind (Indonesian) 0 0 0 0
00003.M2TS 4618 (0x120A) 0x90 PGS jpn (Japanese) 0 0 0 0
00003.M2TS 4619 (0x120B) 0x90 PGS kor (Korean) 0 0 0 0
00003.M2TS 4620 (0x120C) 0x90 PGS nor (Norwegian) 0 0 0 0
00003.M2TS 4621 (0x120D) 0x90 PGS swe (Swedish) 0 0 0 0
00003.M2TS 4622 (0x120E) 0x90 PGS tha (Thai) 0 0 0 0
00003.M2TS 4623 (0x120F) 0x90 PGS spa (Spanish) 0 0 0 0
00003.M2TS 4624 (0x1210) 0x90 PGS fra (French) 0 0 0 0
00003.M2TS 4625 (0x1211) 0x90 PGS jpn (Japanese) 0 0 0 0
00003.M2TS 4626 (0x1212) 0x90 PGS por (Portuguese) 0 0 0 0
00003.M2TS 4627 (0x1213) 0x90 PGS tha (Thai) 0 0 0 0
00000.M2TS 4113 (0x1011) 0x1B AVC 0 0 0 0
00000.M2TS 4352 (0x1100) 0x86 DTS-HD MA eng (English) 0 0 0 0
00000.M2TS 4353 (0x1101) 0x81 AC3 spa (Spanish) 0 0 0 0
00000.M2TS 4354 (0x1102) 0x82 DTS fra (French) 0 0 0 0
00000.M2TS 4355 (0x1103) 0x81 AC3 por (Portuguese) 0 0 0 0
00000.M2TS 4356 (0x1104) 0x81 AC3 tha (Thai) 0 0 0 0
00000.M2TS 4357 (0x1105) 0x82 DTS jpn (Japanese) 0 0 0 0
00000.M2TS 4608 (0x1200) 0x90 PGS eng (English) 0 0 0 0
00000.M2TS 4609 (0x1201) 0x90 PGS spa (Spanish) 0 0 0 0
00000.M2TS 4610 (0x1202) 0x90 PGS fra (French) 0 0 0 0
00000.M2TS 4611 (0x1203) 0x90 PGS por (Portuguese) 0 0 0 0
00000.M2TS 4612 (0x1204) 0x90 PGS zho (Chinese) 0 0 0 0
00000.M2TS 4613 (0x1205) 0x90 PGS zho (Chinese) 0 0 0 0
00000.M2TS 4614 (0x1206) 0x90 PGS dan (Danish) 0 0 0 0
00000.M2TS 4615 (0x1207) 0x90 PGS fin (Finnish) 0 0 0 0
00000.M2TS 4616 (0x1208) 0x90 PGS isl (Icelandic) 0 0 0 0
00000.M2TS 4617 (0x1209) 0x90 PGS ind (Indonesian) 0 0 0 0
00000.M2TS 4618 (0x120A) 0x90 PGS jpn (Japanese) 0 0 0 0
00000.M2TS 4619 (0x120B) 0x90 PGS kor (Korean) 0 0 0 0
00000.M2TS 4620 (0x120C) 0x90 PGS nor (Norwegian) 0 0 0 0
00000.M2TS 4621 (0x120D) 0x90 PGS swe (Swedish) 0 0 0 0
00000.M2TS 4622 (0x120E) 0x90 PGS tha (Thai) 0 0 0 0
00000.M2TS 4623 (0x120F) 0x90 PGS spa (Spanish) 0 0 0 0
00000.M2TS 4624 (0x1210) 0x90 PGS fra (French) 0 0 0 0
00000.M2TS 4625 (0x1211) 0x90 PGS jpn (Japanese) 0 0 0 0
00000.M2TS 4626 (0x1212) 0x90 PGS por (Portuguese) 0 0 0 0
00000.M2TS 4627 (0x1213) 0x90 PGS tha (Thai) 0 0 0 0
00002.M2TS 4113 (0x1011) 0x1B AVC 0 0 0 0
00002.M2TS 4352 (0x1100) 0x86 DTS-HD MA eng (English) 0 0 0 0
00002.M2TS 4353 (0x1101) 0x81 AC3 spa (Spanish) 0 0 0 0
00002.M2TS 4354 (0x1102) 0x82 DTS fra (French) 0 0 0 0
00002.M2TS 4355 (0x1103) 0x81 AC3 por (Portuguese) 0 0 0 0
00002.M2TS 4356 (0x1104) 0x81 AC3 tha (Thai) 0 0 0 0
00002.M2TS 4357 (0x1105) 0x82 DTS jpn (Japanese) 0 0 0 0
00002.M2TS 4608 (0x1200) 0x90 PGS eng (English) 0 0 0 0
00002.M2TS 4609 (0x1201) 0x90 PGS spa (Spanish) 0 0 0 0
00002.M2TS 4610 (0x1202) 0x90 PGS fra (French) 0 0 0 0
00002.M2TS 4611 (0x1203) 0x90 PGS por (Portuguese) 0 0 0 0
00002.M2TS 4612 (0x1204) 0x90 PGS zho (Chinese) 0 0 0 0
00002.M2TS 4613 (0x1205) 0x90 PGS zho (Chinese) 0 0 0 0
00002.M2TS 4614 (0x1206) 0x90 PGS dan (Danish) 0 0 0 0
00002.M2TS 4615 (0x1207) 0x90 PGS fin (Finnish) 0 0 0 0
00002.M2TS 4616 (0x1208) 0x90 PGS isl (Icelandic) 0 0 0 0
00002.M2TS 4617 (0x1209) 0x90 PGS ind (Indonesian) 0 0 0 0
00002.M2TS 4618 (0x120A) 0x90 PGS jpn (Japanese) 0 0 0 0
00002.M2TS 4619 (0x120B) 0x90 PGS kor (Korean) 0 0 0 0
00002.M2TS 4620 (0x120C) 0x90 PGS nor (Norwegian) 0 0 0 0
00002.M2TS 4621 (0x120D) 0x90 PGS swe (Swedish) 0 0 0 0
00002.M2TS 4622 (0x120E) 0x90 PGS tha (Thai) 0 0 0 0
00002.M2TS 4623 (0x120F) 0x90 PGS spa (Spanish) 0 0 0 0
00002.M2TS 4624 (0x1210) 0x90 PGS fra (French) 0 0 0 0
00002.M2TS 4625 (0x1211) 0x90 PGS jpn (Japanese) 0 0 0 0
00002.M2TS 4626 (0x1212) 0x90 PGS por (Portuguese) 0 0 0 0
00002.M2TS 4627 (0x1213) 0x90 PGS tha (Thai) 0 0 0 0

[/code]
<---- END FORUMS PASTE ---->

QUICK SUMMARY:

Disc Title: THE_TERMINATOR_BD
Disc Size: 36,109,489,325 bytes
Protection: AACS
BD-Java: Yes
Playlist: 00000.MPLS
Size: 0 bytes
Length: 1:47:18.598
Total Bitrate: 0.00 Mbps
Video: MPEG-4 AVC Video / 0 kbps / 1080p / 23.976 fps / 16:9 / High Profile 4.1
Audio: English / DTS-HD Master Audio / 5.1 / 48 kHz / 24-bit (DTS Core: 5.1 / 48 kHz / 1509 kbps / 24-bit)
Audio: Spanish / Dolby Digital Audio / 5.1 / 48 kHz / 448 kbps
Audio: French / DTS Audio / 5.1 / 48 kHz / 768 kbps / 24-bit
Audio: Portuguese / Dolby Digital Audio / 2.0 / 48 kHz / 224 kbps
Audio: Thai / Dolby Digital Audio / 2.0 / 48 kHz / 224 kbps
* Audio: Japanese / DTS Audio / 5.1 / 48 kHz / 768 kbps / 24-bit
Subtitle: English / 0.000 kbps
Subtitle: Spanish / 0.000 kbps
Subtitle: French / 0.000 kbps
Subtitle: Portuguese / 0.000 kbps
Subtitle: Chinese / 0.000 kbps
Subtitle: Chinese / 0.000 kbps
Subtitle: Danish / 0.000 kbps
Subtitle: Finnish / 0.000 kbps
Subtitle: Icelandic / 0.000 kbps
Subtitle: Indonesian / 0.000 kbps
* Subtitle: Japanese / 0.000 kbps
Subtitle: Korean / 0.000 kbps
Subtitle: Norwegian / 0.000 kbps
Subtitle: Swedish / 0.000 kbps
Subtitle: Thai / 0.000 kbps
Subtitle: Spanish / 0.000 kbps
Subtitle: French / 0.000 kbps
Subtitle: Japanese / 0.000 kbps
Subtitle: Portuguese / 0.000 kbps
Subtitle: Thai / 0.000 kbps


********************
PLAYLIST: 00001.MPLS
********************

<--- BEGIN FORUMS PASTE --->

Total Video
Title Codec Length Movie Size Disc Size Bitrate Bitrate Main Audio Track Secondary Audio Track
----- ------ ------- -------------- -------------- ------- ------- ------------------ ---------------------
00001.MPLS AVC 1:47:18 0 36,109,489,325 0.00 0.00 DTS-HD Master 5.1 (48kHz/24-bit)




DISC INFO:

Disc Title: THE_TERMINATOR_BD
Disc Size: 36,109,489,325 bytes
Protection: AACS
BD-Java: Yes
BDInfo: 0.7.1

PLAYLIST REPORT:

Name: 00001.MPLS
Length: 1:47:18.598 (h:m:s.ms)
Size: 0 bytes
Total Bitrate: 0.00 Mbps

(*) Indicates included stream hidden by this playlist.

VIDEO:

Codec Bitrate Description
----- ------- -----------
MPEG-4 AVC Video 0 kbps 1080p / 23.976 fps / 16:9 / High Profile 4.1

AUDIO:

Codec Language Bitrate Description
----- -------- ------- -----------
DTS-HD Master Audio English 0 kbps 5.1 / 48 kHz / 24-bit (DTS Core: 5.1 / 48 kHz / 1509 kbps / 24-bit)
* Dolby Digital Audio Spanish 448 kbps 5.1 / 48 kHz / 448 kbps
* DTS Audio French 768 kbps 5.1 / 48 kHz / 768 kbps / 24-bit
* Dolby Digital Audio Portuguese 224 kbps 2.0 / 48 kHz / 224 kbps
* Dolby Digital Audio Thai 224 kbps 2.0 / 48 kHz / 224 kbps
DTS Audio Japanese 768 kbps 5.1 / 48 kHz / 768 kbps / 24-bit

SUBTITLES:

Codec Language Bitrate Description
----- -------- ------- -----------
Presentation Graphics English 0.000 kbps
* Presentation Graphics Spanish 0.000 kbps
* Presentation Graphics French 0.000 kbps
* Presentation Graphics Portuguese 0.000 kbps
* Presentation Graphics Chinese 0.000 kbps
* Presentation Graphics Chinese 0.000 kbps
* Presentation Graphics Danish 0.000 kbps
* Presentation Graphics Finnish 0.000 kbps
* Presentation Graphics Icelandic 0.000 kbps
* Presentation Graphics Indonesian 0.000 kbps
Presentation Graphics Japanese 0.000 kbps
* Presentation Graphics Korean 0.000 kbps
* Presentation Graphics Norwegian 0.000 kbps
* Presentation Graphics Swedish 0.000 kbps
* Presentation Graphics Thai 0.000 kbps
* Presentation Graphics Spanish 0.000 kbps
* Presentation Graphics French 0.000 kbps
Presentation Graphics Japanese 0.000 kbps
Presentation Graphics Portuguese 0.000 kbps
* Presentation Graphics Thai 0.000 kbps

FILES:

Name Time In Length Size Total Bitrate
---- ------- ------ ---- -------------
00003.M2TS 0:00:00.000 0:00:16.099 0 0
00000.M2TS 0:00:16.099 1:46:57.452 0 0
00002.M2TS 1:47:13.552 0:00:05.046 0 0

CHAPTERS:

Number Time In Length Avg Video Rate Max 1-Sec Rate Max 1-Sec Time Max 5-Sec Rate Max 5-Sec Time Max 10Sec Rate Max 10Sec Time Avg Frame Size Max Frame Size Max Frame Time
------ ------- ------ -------------- -------------- -------------- -------------- -------------- -------------- -------------- -------------- -------------- --------------
1 0:00:00.000 0:03:32.253 0 kbps 0 kbps 00:00:00.000 0 kbps 00:00:00.000 0 kbps 00:00:00.000 0 bytes 0 bytes 00:00:00.000
2 0:03:32.253 0:01:45.897 0 kbps 0 kbps 00:00:00.000 0 kbps 00:00:00.000 0 kbps 00:00:00.000 0 bytes 0 bytes 00:00:00.000
3 0:05:18.151 0:01:12.864 0 kbps 0 kbps 00:00:00.000 0 kbps 00:00:00.000 0 kbps 00:00:00.000 0 bytes 0 bytes 00:00:00.000
4 0:06:31.015 0:05:07.307 0 kbps 0 kbps 00:00:00.000 0 kbps 00:00:00.000 0 kbps 00:00:00.000 0 bytes 0 bytes 00:00:00.000
5 0:11:38.322 0:02:07.001 0 kbps 0 kbps 00:00:00.000 0 kbps 00:00:00.000 0 kbps 00:00:00.000 0 bytes 0 bytes 00:00:00.000
6 0:13:45.324 0:01:26.503 0 kbps 0 kbps 00:00:00.000 0 kbps 00:00:00.000 0 kbps 00:00:00.000 0 bytes 0 bytes 00:00:00.000
7 0:15:11.827 0:05:32.790 0 kbps 0 kbps 00:00:00.000 0 kbps 00:00:00.000 0 kbps 00:00:00.000 0 bytes 0 bytes 00:00:00.000
8 0:20:44.618 0:02:04.999 0 kbps 0 kbps 00:00:00.000 0 kbps 00:00:00.000 0 kbps 00:00:00.000 0 bytes 0 bytes 00:00:00.000
9 0:22:49.618 0:07:00.169 0 kbps 0 kbps 00:00:00.000 0 kbps 00:00:00.000 0 kbps 00:00:00.000 0 bytes 0 bytes 00:00:00.000
10 0:29:49.787 0:03:25.246 0 kbps 0 kbps 00:00:00.000 0 kbps 00:00:00.000 0 kbps 00:00:00.000 0 bytes 0 bytes 00:00:00.000
11 0:33:15.034 0:05:32.081 0 kbps 0 kbps 00:00:00.000 0 kbps 00:00:00.000 0 kbps 00:00:00.000 0 bytes 0 bytes 00:00:00.000
12 0:38:47.116 0:02:38.074 0 kbps 0 kbps 00:00:00.000 0 kbps 00:00:00.000 0 kbps 00:00:00.000 0 bytes 0 bytes 00:00:00.000
13 0:41:25.191 0:06:21.297 0 kbps 0 kbps 00:00:00.000 0 kbps 00:00:00.000 0 kbps 00:00:00.000 0 bytes 0 bytes 00:00:00.000
14 0:47:46.488 0:02:53.506 0 kbps 0 kbps 00:00:00.000 0 kbps 00:00:00.000 0 kbps 00:00:00.000 0 bytes 0 bytes 00:00:00.000
15 0:50:39.995 0:04:01.574 0 kbps 0 kbps 00:00:00.000 0 kbps 00:00:00.000 0 kbps 00:00:00.000 0 bytes 0 bytes 00:00:00.000
16 0:54:41.569 0:04:23.346 0 kbps 0 kbps 00:00:00.000 0 kbps 00:00:00.000 0 kbps 00:00:00.000 0 bytes 0 bytes 00:00:00.000
17 0:59:04.916 0:04:48.621 0 kbps 0 kbps 00:00:00.000 0 kbps 00:00:00.000 0 kbps 00:00:00.000 0 bytes 0 bytes 00:00:00.000
18 1:03:53.538 0:05:44.010 0 kbps 0 kbps 00:00:00.000 0 kbps 00:00:00.000 0 kbps 00:00:00.000 0 bytes 0 bytes 00:00:00.000
19 1:09:37.548 0:04:31.437 0 kbps 0 kbps 00:00:00.000 0 kbps 00:00:00.000 0 kbps 00:00:00.000 0 bytes 0 bytes 00:00:00.000
20 1:14:08.986 0:00:51.092 0 kbps 0 kbps 00:00:00.000 0 kbps 00:00:00.000 0 kbps 00:00:00.000 0 bytes 0 bytes 00:00:00.000
21 1:15:00.078 0:02:18.721 0 kbps 0 kbps 00:00:00.000 0 kbps 00:00:00.000 0 kbps 00:00:00.000 0 bytes 0 bytes 00:00:00.000
22 1:17:18.800 0:01:11.571 0 kbps 0 kbps 00:00:00.000 0 kbps 00:00:00.000 0 kbps 00:00:00.000 0 bytes 0 bytes 00:00:00.000
23 1:18:30.372 0:04:30.520 0 kbps 0 kbps 00:00:00.000 0 kbps 00:00:00.000 0 kbps 00:00:00.000 0 bytes 0 bytes 00:00:00.000
24 1:23:00.892 0:03:23.828 0 kbps 0 kbps 00:00:00.000 0 kbps 00:00:00.000 0 kbps 00:00:00.000 0 bytes 0 bytes 00:00:00.000
25 1:26:24.721 0:03:57.862 0 kbps 0 kbps 00:00:00.000 0 kbps 00:00:00.000 0 kbps 00:00:00.000 0 bytes 0 bytes 00:00:00.000
26 1:30:22.583 0:01:56.783 0 kbps 0 kbps 00:00:00.000 0 kbps 00:00:00.000 0 kbps 00:00:00.000 0 bytes 0 bytes 00:00:00.000
27 1:32:19.367 0:03:32.754 0 kbps 0 kbps 00:00:00.000 0 kbps 00:00:00.000 0 kbps 00:00:00.000 0 bytes 0 bytes 00:00:00.000
28 1:35:52.121 0:04:01.741 0 kbps 0 kbps 00:00:00.000 0 kbps 00:00:00.000 0 kbps 00:00:00.000 0 bytes 0 bytes 00:00:00.000
29 1:39:53.862 0:00:24.858 0 kbps 0 kbps 00:00:00.000 0 kbps 00:00:00.000 0 kbps 00:00:00.000 0 bytes 0 bytes 00:00:00.000
30 1:40:18.721 0:00:30.613 0 kbps 0 kbps 00:00:00.000 0 kbps 00:00:00.000 0 kbps 00:00:00.000 0 bytes 0 bytes 00:00:00.000
31 1:40:49.334 0:02:23.560 0 kbps 0 kbps 00:00:00.000 0 kbps 00:00:00.000 0 kbps 00:00:00.000 0 bytes 0 bytes 00:00:00.000
32 1:43:12.895 0:04:05.703 0 kbps 0 kbps 00:00:00.000 0 kbps 00:00:00.000 0 kbps 00:00:00.000 0 bytes 0 bytes 00:00:00.000

STREAM DIAGNOSTICS:

File PID Type Codec Language Seconds Bitrate Bytes Packets
---- --- ---- ----- -------- -------------- -------------- ------------- -----
00003.M2TS 4113 (0x1011) 0x1B AVC 0 0 0 0
00003.M2TS 4352 (0x1100) 0x86 DTS-HD MA eng (English) 0 0 0 0
00003.M2TS 4353 (0x1101) 0x81 AC3 spa (Spanish) 0 0 0 0
00003.M2TS 4354 (0x1102) 0x82 DTS fra (French) 0 0 0 0
00003.M2TS 4355 (0x1103) 0x81 AC3 por (Portuguese) 0 0 0 0
00003.M2TS 4356 (0x1104) 0x81 AC3 tha (Thai) 0 0 0 0
00003.M2TS 4357 (0x1105) 0x82 DTS jpn (Japanese) 0 0 0 0
00003.M2TS 4608 (0x1200) 0x90 PGS eng (English) 0 0 0 0
00003.M2TS 4609 (0x1201) 0x90 PGS spa (Spanish) 0 0 0 0
00003.M2TS 4610 (0x1202) 0x90 PGS fra (French) 0 0 0 0
00003.M2TS 4611 (0x1203) 0x90 PGS por (Portuguese) 0 0 0 0
00003.M2TS 4612 (0x1204) 0x90 PGS zho (Chinese) 0 0 0 0
00003.M2TS 4613 (0x1205) 0x90 PGS zho (Chinese) 0 0 0 0
00003.M2TS 4614 (0x1206) 0x90 PGS dan (Danish) 0 0 0 0
00003.M2TS 4615 (0x1207) 0x90 PGS fin (Finnish) 0 0 0 0
00003.M2TS 4616 (0x1208) 0x90 PGS isl (Icelandic) 0 0 0 0
00003.M2TS 4617 (0x1209) 0x90 PGS ind (Indonesian) 0 0 0 0
00003.M2TS 4618 (0x120A) 0x90 PGS jpn (Japanese) 0 0 0 0
00003.M2TS 4619 (0x120B) 0x90 PGS kor (Korean) 0 0 0 0
00003.M2TS 4620 (0x120C) 0x90 PGS nor (Norwegian) 0 0 0 0
00003.M2TS 4621 (0x120D) 0x90 PGS swe (Swedish) 0 0 0 0
00003.M2TS 4622 (0x120E) 0x90 PGS tha (Thai) 0 0 0 0
00003.M2TS 4623 (0x120F) 0x90 PGS spa (Spanish) 0 0 0 0
00003.M2TS 4624 (0x1210) 0x90 PGS fra (French) 0 0 0 0
00003.M2TS 4625 (0x1211) 0x90 PGS jpn (Japanese) 0 0 0 0
00003.M2TS 4626 (0x1212) 0x90 PGS por (Portuguese) 0 0 0 0
00003.M2TS 4627 (0x1213) 0x90 PGS tha (Thai) 0 0 0 0
00000.M2TS 4113 (0x1011) 0x1B AVC 0 0 0 0
00000.M2TS 4352 (0x1100) 0x86 DTS-HD MA eng (English) 0 0 0 0
00000.M2TS 4353 (0x1101) 0x81 AC3 spa (Spanish) 0 0 0 0
00000.M2TS 4354 (0x1102) 0x82 DTS fra (French) 0 0 0 0
00000.M2TS 4355 (0x1103) 0x81 AC3 por (Portuguese) 0 0 0 0
00000.M2TS 4356 (0x1104) 0x81 AC3 tha (Thai) 0 0 0 0
00000.M2TS 4357 (0x1105) 0x82 DTS jpn (Japanese) 0 0 0 0
00000.M2TS 4608 (0x1200) 0x90 PGS eng (English) 0 0 0 0
00000.M2TS 4609 (0x1201) 0x90 PGS spa (Spanish) 0 0 0 0
00000.M2TS 4610 (0x1202) 0x90 PGS fra (French) 0 0 0 0
00000.M2TS 4611 (0x1203) 0x90 PGS por (Portuguese) 0 0 0 0
00000.M2TS 4612 (0x1204) 0x90 PGS zho (Chinese) 0 0 0 0
00000.M2TS 4613 (0x1205) 0x90 PGS zho (Chinese) 0 0 0 0
00000.M2TS 4614 (0x1206) 0x90 PGS dan (Danish) 0 0 0 0
00000.M2TS 4615 (0x1207) 0x90 PGS fin (Finnish) 0 0 0 0
00000.M2TS 4616 (0x1208) 0x90 PGS isl (Icelandic) 0 0 0 0
00000.M2TS 4617 (0x1209) 0x90 PGS ind (Indonesian) 0 0 0 0
00000.M2TS 4618 (0x120A) 0x90 PGS jpn (Japanese) 0 0 0 0
00000.M2TS 4619 (0x120B) 0x90 PGS kor (Korean) 0 0 0 0
00000.M2TS 4620 (0x120C) 0x90 PGS nor (Norwegian) 0 0 0 0
00000.M2TS 4621 (0x120D) 0x90 PGS swe (Swedish) 0 0 0 0
00000.M2TS 4622 (0x120E) 0x90 PGS tha (Thai) 0 0 0 0
00000.M2TS 4623 (0x120F) 0x90 PGS spa (Spanish) 0 0 0 0
00000.M2TS 4624 (0x1210) 0x90 PGS fra (French) 0 0 0 0
00000.M2TS 4625 (0x1211) 0x90 PGS jpn (Japanese) 0 0 0 0
00000.M2TS 4626 (0x1212) 0x90 PGS por (Portuguese) 0 0 0 0
00000.M2TS 4627 (0x1213) 0x90 PGS tha (Thai) 0 0 0 0
00002.M2TS 4113 (0x1011) 0x1B AVC 0 0 0 0
00002.M2TS 4352 (0x1100) 0x86 DTS-HD MA eng (English) 0 0 0 0
00002.M2TS 4353 (0x1101) 0x81 AC3 spa (Spanish) 0 0 0 0
00002.M2TS 4354 (0x1102) 0x82 DTS fra (French) 0 0 0 0
00002.M2TS 4355 (0x1103) 0x81 AC3 por (Portuguese) 0 0 0 0
00002.M2TS 4356 (0x1104) 0x81 AC3 tha (Thai) 0 0 0 0
00002.M2TS 4357 (0x1105) 0x82 DTS jpn (Japanese) 0 0 0 0
00002.M2TS 4608 (0x1200) 0x90 PGS eng (English) 0 0 0 0
00002.M2TS 4609 (0x1201) 0x90 PGS spa (Spanish) 0 0 0 0
00002.M2TS 4610 (0x1202) 0x90 PGS fra (French) 0 0 0 0
00002.M2TS 4611 (0x1203) 0x90 PGS por (Portuguese) 0 0 0 0
00002.M2TS 4612 (0x1204) 0x90 PGS zho (Chinese) 0 0 0 0
00002.M2TS 4613 (0x1205) 0x90 PGS zho (Chinese) 0 0 0 0
00002.M2TS 4614 (0x1206) 0x90 PGS dan (Danish) 0 0 0 0
00002.M2TS 4615 (0x1207) 0x90 PGS fin (Finnish) 0 0 0 0
00002.M2TS 4616 (0x1208) 0x90 PGS isl (Icelandic) 0 0 0 0
00002.M2TS 4617 (0x1209) 0x90 PGS ind (Indonesian) 0 0 0 0
00002.M2TS 4618 (0x120A) 0x90 PGS jpn (Japanese) 0 0 0 0
00002.M2TS 4619 (0x120B) 0x90 PGS kor (Korean) 0 0 0 0
00002.M2TS 4620 (0x120C) 0x90 PGS nor (Norwegian) 0 0 0 0
00002.M2TS 4621 (0x120D) 0x90 PGS swe (Swedish) 0 0 0 0
00002.M2TS 4622 (0x120E) 0x90 PGS tha (Thai) 0 0 0 0
00002.M2TS 4623 (0x120F) 0x90 PGS spa (Spanish) 0 0 0 0
00002.M2TS 4624 (0x1210) 0x90 PGS fra (French) 0 0 0 0
00002.M2TS 4625 (0x1211) 0x90 PGS jpn (Japanese) 0 0 0 0
00002.M2TS 4626 (0x1212) 0x90 PGS por (Portuguese) 0 0 0 0
00002.M2TS 4627 (0x1213) 0x90 PGS tha (Thai) 0 0 0 0


<---- END FORUMS PASTE ---->

QUICK SUMMARY:

Disc Title: THE_TERMINATOR_BD
Disc Size: 36,109,489,325 bytes
Protection: AACS
BD-Java: Yes
Playlist: 00001.MPLS
Size: 0 bytes
Length: 1:47:18.598
Total Bitrate: 0.00 Mbps
Video: MPEG-4 AVC Video / 0 kbps / 1080p / 23.976 fps / 16:9 / High Profile 4.1
Audio: English / DTS-HD Master Audio / 5.1 / 48 kHz / 24-bit (DTS Core: 5.1 / 48 kHz / 1509 kbps / 24-bit)
* Audio: Spanish / Dolby Digital Audio / 5.1 / 48 kHz / 448 kbps
* Audio: French / DTS Audio / 5.1 / 48 kHz / 768 kbps / 24-bit
* Audio: Portuguese / Dolby Digital Audio / 2.0 / 48 kHz / 224 kbps
* Audio: Thai / Dolby Digital Audio / 2.0 / 48 kHz / 224 kbps
Audio: Japanese / DTS Audio / 5.1 / 48 kHz / 768 kbps / 24-bit
Subtitle: English / 0.000 kbps
* Subtitle: Spanish / 0.000 kbps
* Subtitle: French / 0.000 kbps
* Subtitle: Portuguese / 0.000 kbps
* Subtitle: Chinese / 0.000 kbps
* Subtitle: Chinese / 0.000 kbps
* Subtitle: Danish / 0.000 kbps
* Subtitle: Finnish / 0.000 kbps
* Subtitle: Icelandic / 0.000 kbps
* Subtitle: Indonesian / 0.000 kbps
Subtitle: Japanese / 0.000 kbps
* Subtitle: Korean / 0.000 kbps
* Subtitle: Norwegian / 0.000 kbps
* Subtitle: Swedish / 0.000 kbps
* Subtitle: Thai / 0.000 kbps
* Subtitle: Spanish / 0.000 kbps
* Subtitle: French / 0.000 kbps
Subtitle: Japanese / 0.000 kbps
Subtitle: Portuguese / 0.000 kbps
* Subtitle: Thai / 0.000 kbps


********************
PLAYLIST: 00102.MPLS
********************

<--- BEGIN FORUMS PASTE --->

Total Video
Title Codec Length Movie Size Disc Size Bitrate Bitrate Main Audio Track Secondary Audio Track
----- ------ ------- -------------- -------------- ------- ------- ------------------ ---------------------
00102.MPLS AVC 0:20:30 0 36,109,489,325 0.00 0.00 DD AC3 2.0 224Kbps




DISC INFO:

Disc Title: THE_TERMINATOR_BD
Disc Size: 36,109,489,325 bytes
Protection: AACS
BD-Java: Yes
BDInfo: 0.7.1

PLAYLIST REPORT:

Name: 00102.MPLS
Length: 0:20:30.896 (h:m:s.ms)
Size: 0 bytes
Total Bitrate: 0.00 Mbps

(*) Indicates included stream hidden by this playlist.

VIDEO:

Codec Bitrate Description
----- ------- -----------
MPEG-4 AVC Video 0 kbps 480i / 29.970 fps / 4:3 / High Profile 3.2

AUDIO:

Codec Language Bitrate Description
----- -------- ------- -----------
Dolby Digital Audio English 224 kbps 2.0 / 48 kHz / 224 kbps

SUBTITLES:

Codec Language Bitrate Description
----- -------- ------- -----------
Presentation Graphics English 0.000 kbps
* Presentation Graphics Japanese 0.000 kbps

FILES:

Name Time In Length Size Total Bitrate
---- ------- ------ ---- -------------
00102.M2TS 0:00:00.000 0:20:30.896 0 0

CHAPTERS:

Number Time In Length Avg Video Rate Max 1-Sec Rate Max 1-Sec Time Max 5-Sec Rate Max 5-Sec Time Max 10Sec Rate Max 10Sec Time Avg Frame Size Max Frame Size Max Frame Time
------ ------- ------ -------------- -------------- -------------- -------------- -------------- -------------- -------------- -------------- -------------- --------------
1 0:00:00.000 0:20:30.896 0 kbps 0 kbps 00:00:00.000 0 kbps 00:00:00.000 0 kbps 00:00:00.000 0 bytes 0 bytes 00:00:00.000

STREAM DIAGNOSTICS:

File PID Type Codec Language Seconds Bitrate Bytes Packets
---- --- ---- ----- -------- -------------- -------------- ------------- -----
00102.M2TS 4113 (0x1011) 0x1B AVC 0 0 0 0
00102.M2TS 4352 (0x1100) 0x81 AC3 eng (English) 0 0 0 0
00102.M2TS 4608 (0x1200) 0x90 PGS eng (English) 0 0 0 0
00102.M2TS 4609 (0x1201) 0x90 PGS jpn (Japanese) 0 0 0 0


<---- END FORUMS PASTE ---->

QUICK SUMMARY:

Disc Title: THE_TERMINATOR_BD
Disc Size: 36,109,489,325 bytes
Protection: AACS
BD-Java: Yes
Playlist: 00102.MPLS
Size: 0 bytes
Length: 0:20:30.896
Total Bitrate: 0.00 Mbps
Video: MPEG-4 AVC Video / 0 kbps / 480i / 29.970 fps / 4:3 / High Profile 3.2
Audio: English / Dolby Digital Audio / 2.0 / 48 kHz / 224 kbps
Subtitle: English / 0.000 kbps
* Subtitle: Japanese / 0.000 kbps


********************
PLAYLIST: 01102.MPLS
********************

<--- BEGIN FORUMS PASTE --->

Total Video
Title Codec Length Movie Size Disc Size Bitrate Bitrate Main Audio Track Secondary Audio Track
----- ------ ------- -------------- -------------- ------- ------- ------------------ ---------------------
01102.MPLS AVC 0:20:30 0 36,109,489,325 0.00 0.00 DD AC3 2.0 224Kbps




DISC INFO:

Disc Title: THE_TERMINATOR_BD
Disc Size: 36,109,489,325 bytes
Protection: AACS
BD-Java: Yes
BDInfo: 0.7.1

PLAYLIST REPORT:

Name: 01102.MPLS
Length: 0:20:30.896 (h:m:s.ms)
Size: 0 bytes
Total Bitrate: 0.00 Mbps

VIDEO:

Codec Bitrate Description
----- ------- -----------
MPEG-4 AVC Video 0 kbps 480i / 29.970 fps / 4:3 / High Profile 3.2

AUDIO:

Codec Language Bitrate Description
----- -------- ------- -----------
Dolby Digital Audio English 224 kbps 2.0 / 48 kHz / 224 kbps

SUBTITLES:

Codec Language Bitrate Description
----- -------- ------- -----------
Presentation Graphics English 0.000 kbps
Presentation Graphics Japanese 0.000 kbps

FILES:

Name Time In Length Size Total Bitrate
---- ------- ------ ---- -------------
00102.M2TS 0:00:00.000 0:20:30.896 0 0

CHAPTERS:

Number Time In Length Avg Video Rate Max 1-Sec Rate Max 1-Sec Time Max 5-Sec Rate Max 5-Sec Time Max 10Sec Rate Max 10Sec Time Avg Frame Size Max Frame Size Max Frame Time
------ ------- ------ -------------- -------------- -------------- -------------- -------------- -------------- -------------- -------------- -------------- --------------
1 0:00:00.000 0:20:30.896 0 kbps 0 kbps 00:00:00.000 0 kbps 00:00:00.000 0 kbps 00:00:00.000 0 bytes 0 bytes 00:00:00.000

STREAM DIAGNOSTICS:

File PID Type Codec Language Seconds Bitrate Bytes Packets
---- --- ---- ----- -------- -------------- -------------- ------------- -----
00102.M2TS 4113 (0x1011) 0x1B AVC 0 0 0 0
00102.M2TS 4352 (0x1100) 0x81 AC3 eng (English) 0 0 0 0
00102.M2TS 4608 (0x1200) 0x90 PGS eng (English) 0 0 0 0
00102.M2TS 4609 (0x1201) 0x90 PGS jpn (Japanese) 0 0 0 0


<---- END FORUMS PASTE ---->

QUICK SUMMARY:

Disc Title: THE_TERMINATOR_BD
Disc Size: 36,109,489,325 bytes
Protection: AACS
BD-Java: Yes
Playlist: 01102.MPLS
Size: 0 bytes
Length: 0:20:30.896
Total Bitrate: 0.00 Mbps
Video: MPEG-4 AVC Video / 0 kbps / 480i / 29.970 fps / 4:3 / High Profile 3.2
Audio: English / Dolby Digital Audio / 2.0 / 48 kHz / 224 kbps
Subtitle: English / 0.000 kbps
Subtitle: Japanese / 0.000 kbps


Reportar Error Visitas: 460